DNS SERVER AENDERNum der staatlichen Zensur zu umgehen. Sollten wir von eurem Provider geseprrt werden, nutzt den TOR BROWSER oder ändert euren DNS SERVER.

Filmwünsche können bei uns im Forum abgegeben werden

Wir Speichern Nicht




 
 
 
Top Releases
American.Animals.2018.German...
Aufbruch.zum.Mond.2018.Germa...
Aufbruch.zum.Mond.2018.Germa...
Aufbruch.zum.Mond.2018.Germa...
Die.Unglaublichen.2.2018.Ger...
Die.Unglaublichen.2.2018.Ger...
Take.The.Ball.Pass.The.Ball....
Take.The.Ball.Pass.The.Ball....
Upgrade.German.DL.AC3.Dubbed...
Upgrade.German.DL.AC3.Dubbed...

Cinedubs
Dont.Worry.weglaufen.geht.ni...
Dont.Worry.weglaufen.geht.ni...
Gaensehaut.2.Gruseliges.Hall...
Aquaman.TS.LD.German.DL.720p...
Eho.Echo.German.720p.WEBRip....
Eho.Echo.German.1080p.WEBRip...
Bad.Times.at.the.El.Royale.2...
Bad.Spies.2018.German.DL.AC3...
Aquaman.2018.GERMAN.AC3.MD.7...
Bad.Spies.German.DL.AC3.Dubb...

Neuerscheinungen 2018-19
Der.Honorarkonsul.Beyond.the...
Take.The.Ball.Pass.The.Ball....
Predator.Upgrade.2018.MULTi....
Solo.2018.German.1080p.WEB.x...
Solo.2018.German.720p.WEB.x2...
The.Last.Laugh.2019.German.D...
Night.School.EXTENDED.German...
Night.School.EXTENDED.German...
Terrifier.UNCUT.GERMAN.2016....
Dieter.der.Film.2006.German....

XXX
MyLifeInMiami.18.12.05.Vina....
Lustery.E157.Maya.And.Edward...
NinaKayy.17.05.12.Foot.Teasi...
NataliaStarr.18.03.09.Sexy.W...
NataliaStarr.18.03.09.Heatin...
NataliaStarr.18.03.09.Cummin...
NHLPCentral.18.12.26.April.P...
NinaKayy.17.05.06.Foot.Domin...
MomXXX.18.12.27.Kiki.Minaj.X...
MyLifeInMiami.18.12.21.Kitty...
MommyBlowsBest.18.12.26.Lexi...
NinaKayy.17.05.09.Sexting.Yo...
MyLifeInMiami.18.11.30.Brook...
NataliaStarr.18.03.09.Riding...
MyLifeInMiami.18.12.21.Megan...
MassageRooms.18.12.26.Angel....
MomsBangTeens.18.12.25.Cory....
NHLPCentral.18.12.20.Tindra....
NinaKayy.17.05.14.Betty.Bang...
NinaKayy.17.05.01.Netflix.Ch...

3D
Walhalla.Rising.3D.2009.DUAL...
Sleepwalker.3D.2011.DUAL.COM...
Bis.an.die.Grenzen.des.Unive...
Best.of.3D.vol.13.-.15.GERMA...
Limbradur.und.die.Magie.der....
Kaluoka.Hina.Das.Zauberriff....
Limbradur.und.die.Magie.der....
Smallfoot.3D.2018.COMPLETE.B...
Smallfoot.Ein.eisigartiges.A...
Skyscraper.3D.2018.German.DL...
Meg.3D.2018.MULTi.COMPLETE.B...
Meg.3D.2018.German.DL.1080p....
Gans.im.Glueck.3D.2018.MULTi...
The.Art.of.Flight.3D.2011.Ge...
The.End.Of.The.World.3D.2010...

Old_Stuff
Todfreunde.aka.Bad.Influence...
Animatrix.2003.German.DL.108...
Animatrix.2003.German.DL.720...
Akte.X.S06.German.DTS.DL.108...
The.Beauty.of.Gemina.Minor.S...
ZZ.Top.Live.from.Texas.2008....
Peter.Hase.2018.German.DL.10...
Akte.X.S05.German.DTS.DL.108...
Akte.X.S04.German.DTS.DL.108...
Akte.X.S03.German.DTS.DL.108...
Dunkirk.1958.COMPLETE.BLURAY...
Das.Wunder.von.Manhattan.199...
The.Amazing.Spiderman.2.Rise...
Rise.of.the.Predator.2014.Ge...
Detective.Dee.und.das.Geheim...

Filme
Der.gruene.Bogenschuetze.196...
Die.Prinzessin.und.der.flieg...
American.Animals.2018.German...
American.Animals.2018.German...
Sexgefluester.2007.German.DL...
Sex.Up.Your.Life.2012.German...
Ghostland.2018.German.DL.108...
Ghostland.2018.German.DL.108...
Sex.oder.stirb.2000.German.D...
Halloween.2018.German.Dubbed...
Sex.Killer.Lust.Mord.Wahnsin...
Sex.fuer.Anfaenger.2002.Germ...
Beyond.the.Lights.2014.Germa...
Wintercamping.in.Italien.-.D...
Re.E346.Urlaub.statt.Knast.-...
Welcome.Home.2018.German.DTS...
Der.Hauptmann.2017.German.DT...
Rise.of.the.Scythian.2018.Ge...
Mara.2018.German.DL.1080p.Bl...
Ghost.Bride.2013.German.DL.1...
Predator.Upgrade.2018.German...
Biohazard.Monster.aus.der.Ga...
Tesla.unter.Strom.GERMAN.DOK...
Havanna.1990.German.DL.1080p...

 
 
Die.Prinzessin.und.der.fliegende.Schuster.1987.GERMAN.FS.720p.HDTV.x264-TMSF

Jahr: 1987
Genre: Fantasy
Sprache: Deutsch AC3
Laufzeit: 1h 26mn
Bitrate: 4 833 Kbps
Format: MKV
Größe: 2.91 GiB
Release:

Beschreibung:

Die Sonne hat verschlafen. Warum nur? – Weil die Hexe der Finsternis den goldenen Weck-Hahn gestohlen hat! Frau Sonne und Hexe Finsternis erscheinen vor dem König, er soll schlichten. Dank seiner aufgeweckten Tochter trifft er die richtige Entscheidung: Der Hahn muss zurückgegeben werden. Die Hexe schwört Rache: Keinen anderen als einen schmutzigen Schuster soll Prinzessin Jasnenka zum Mann bekommen! Daraufhin schließt der König seine Tochter in einen hohen Turm, damit sich der Fluch niemals bewahrheiten kann. Dieser wird jedoch schnell zur Legende und spricht sich herum. Der findige Schuster Jira erfliegt sich tatsächlich einen Weg zu der Prinzessin. Wie kann das sein? Die Hexe der Finsternis und ihre hämische Tochter stecken natürlich dahinter. Doch womit sie nicht gerechnet haben: Jira und Jasnenka lieben sich. Entsetzt sinnen die bösen Weiber auf Mittel und Wege, wie sie das junge Glück zerstören können.



Complete name                            : tmsf-dpudfs1987-720p.mkv
Format                                   : Matroska
Format version                           : Version 4 / Version 2
File size                                : 2.91 GiB
Duration                                 : 1h 26mn
Overall bit rate                         : 4 833 Kbps
Encoded date                             : UTC 2019-01-12T08:57:42Z
Writing application                      : HandBrake 1.1.2 2018090500
Writing library                          : Lavf57.7.2

Video
ID                                       : 1
Format                                   : AVC
Format/Info                              : Advanced Video Codec
Format profile                           : High@L4.1
Format settings, CABAC                   : Yes
Format settings, ReFrames                : 5 frames
Codec ID                                 : V_MPEG4/ISO/AVC
Duration                                 : 1h 26mn
Bit rate                                 : 4 353 Kbps
Width                                    : 924 pixels
Height                                   : 720 pixels
Display aspect ratio                     : 1.283
Frame rate mode                          : Constant
Frame rate                               : 25.000 fps
Color space                              : YUV
Chroma subsampling                       : 4:2:0
Bit depth                                : 8 bits
Scan type                                : Progressive
Bits/(Pixel*Frame)                       : 0.262
Stream size                              : 2.62 GiB (90%)
Writing library                          : x264 core 155 r2901 7d0ff22
Encoding settings                        : cabac=1 / ref=5 / deblock=1:-3:-3 / analyse=0x3:0x112 / me=umh / subme=7 / psy=1 / psy_rd=1.00:0.15 / mixed_ref=1 / me_range=16 / chroma_me=1 / trellis=1 / 8x8dct=1 / cqm=0 / deadzone=21,11 / fast_pskip=0 / chroma_qp_offset=-3 / threads=12 / lookahead_threads=2 / sliced_threads=0 / nr=0 / decimate=1 / interlaced=0 / bluray_compat=0 / constrained_intra=0 / bframes=3 / b_pyramid=2 / b_adapt=2 / b_bias=0 / direct=3 / weightb=1 / open_gop=0 / weightp=2 / keyint=240 / keyint_min=24 / scenecut=40 / intra_refresh=0 / rc_lookahead=50 / rc=crf / mbtree=1 / crf=20.0 / qcomp=0.60 / qpmin=0 / qpmax=69 / qpstep=4 / ip_ratio=1.40 / aq=1:1.00
Default                                  : Yes
Forced                                   : No

Audio
ID                                       : 2
Format                                   : AC-3
Format/Info                              : Audio Coding 3
Mode extension                           : CM (complete main)
Format settings, Endianness              : Big
Codec ID                                 : A_AC3
Duration                                 : 1h 26mn
Bit rate mode                            : Constant
Bit rate                                 : 384 Kbps
Channel(s)                               : 2 channels
Channel positions                        : Front: L R
Sampling rate                            : 48.0 KHz
Bit depth                                : 16 bits
Compression mode                         : Lossy
Delay relative to video                  : 64ms
Stream size                              : 237 MiB (8%)
Title                                    : Stereo
Language                                 : German
Default                                  : Yes
Forced                                   : No




Download:
Share Online Share OnlineShare OnlineShare Online
 

Kommentare