DNS SERVER AENDERNum der staatlichen Zensur zu umgehen. Sollten wir von eurem Provider geseprrt werden, nutzt den TOR BROWSER oder ändert euren DNS SERVER.

Filmwünsche können bei uns im Forum abgegeben werden

Wir Speichern Nicht




 
 
 
Top Releases
Gold.Gier.hat.eine.neue.Farb...
Charlie.Countryman.2013.Germ...
Halloween.German.DL.AC3.Dubb...
Halloween.German.DL.AC3.Dubb...
New.Worlds.Aufbruch.nach.Ame...
New.Worlds.Aufbruch.nach.Ame...
City.of.Life.and.Death.2009....
City.of.Life.and.Death.2009....
City.of.Life.and.Death.2009....
Zuhause.ist.es.am.schoensten...

Cinedubs
Gaensehaut.2.Gruseliges.Hall...
Aquaman.TS.LD.German.DL.720p...
Eho.Echo.German.720p.WEBRip....
Eho.Echo.German.1080p.WEBRip...
Bad.Times.at.the.El.Royale.2...
Bad.Spies.2018.German.DL.AC3...
Aquaman.2018.GERMAN.AC3.MD.7...
Bad.Spies.German.DL.AC3.Dubb...
Bad.Spies.German.DL.AC3.Dubb...
Bad.Times.at.the.El.Royale.G...

Neuerscheinungen 2018-19
Shaitan.2011.German.1080p.HD...
Von.Herren.und.Dienern.2015....
Maniac.1980.REMASTERED.COMPL...
Colditz.2005.German.DL.1080p...
Cry.Wolf.2005.German.DL.1080...
Colditz.2005.German.DL.1080p...
Colditz.2005.German.720p.Blu...
Death.Kiss.UNCUT.2018.German...
Death.Kiss.UNCUT.2018.DUAL.C...
Death.Kiss.UNCUT.2018.German...

XXX
From.Teen.Ass.To.Teen.Mouth....
From.Teen.Ass.To.Teen.Mouth....
Cosmid.18.12.26.Abigail.Andr...
BrazzersExxtra.18.12.28.Abel...
CzechBoobs.18.12.27.Jarushka...
ATKGirlfriends.18.12.27.Carm...
BangBus.18.12.26.Claire.Blac...
Blacked.18.12.26.Ashley.Lane...
CzechBoobs.18.12.27.Denisa.O...
BraceFaced.18.12.25.Candice....
BoldlyGirls.18.12.26.Venus.A...
CherryPimps.18.12.27.Paige.O...
BreakingAsses.18.12.25.Donna...
Bang.RoadSideXXX.18.12.25.St...
BrothaLovers.18.12.21.Alex.H...
BigWetButts.18.12.25.Brett.R...
BigTitCreamPie.18.12.27.Diam...
Bang.Glamkore.18.12.27.Amari...
ClubSeventeen.18.12.26.Karol...
ATKHairy.18.12.25.Lux.Lives....

3D
Bis.an.die.Grenzen.des.Unive...
Best.of.3D.vol.13.-.15.GERMA...
Limbradur.und.die.Magie.der....
Kaluoka.Hina.Das.Zauberriff....
Limbradur.und.die.Magie.der....
Smallfoot.3D.2018.COMPLETE.B...
Smallfoot.Ein.eisigartiges.A...
Skyscraper.3D.2018.German.DL...
Meg.3D.2018.MULTi.COMPLETE.B...
Meg.3D.2018.German.DL.1080p....
Gans.im.Glueck.3D.2018.MULTi...
The.Art.of.Flight.3D.2011.Ge...
The.End.Of.The.World.3D.2010...
The.First.Avenger.Civil.War....
Die.Unglaublichen.2.2018.3D....

Old_Stuff
Peter.Hase.2018.German.DL.10...
Akte.X.S05.German.DTS.DL.108...
Akte.X.S04.German.DTS.DL.108...
Akte.X.S03.German.DTS.DL.108...
Dunkirk.1958.COMPLETE.BLURAY...
Das.Wunder.von.Manhattan.199...
The.Amazing.Spiderman.2.Rise...
Rise.of.the.Predator.2014.Ge...
Detective.Dee.und.das.Geheim...
Detective.Dee.Und.Der.Fluch....
Ghost.Rider.Spirit.of.Vengea...
Species.IV.Das.Erwachen.2007...
Species.IV.Das.Erwachen.2007...
Hotel.Transsilvanien.2012.Ge...
The.Dead.2010.German.DL.1080...

Filme
S.W.A.T.2017.S02.German.DD51...
S.W.A.T.2017.S02.German.DD51...
Carter.S01.GERMAN.DL.720p.HD...
The.Big.Bang.Theory.S12.GERM...
The.Big.Bang.Theory.S12.GERM...
Young.Sheldon.S02.GERMAN.DUB...
Young.Sheldon.S02.GERMAN.DUB...
Outlander.S04.German.DD51.DL...
Black.Panther.2018.German.DT...
Runner.Runner.2013.German.DL...
Insidious.2010.German.DL.108...
Alarmstufe.Rot.1992.German.D...
Zelle.211.Der.Knastaufstand....
Zerophilia.Heute.er.morgen.s...
Modern.Family.S09.GERMAN.DUB...
Modern.Family.S09.GERMAN.DUB...
American.Horror.Story.S08.GE...
American.Horror.Story.S08.GE...
Die.Casting.Couch.2006.Germa...
Dont.look.Up.2009.German.DTS...
Annie.2014.German.DL.1080p.B...
Charlie.Banks.Der.Augenzeuge...
Die.Legende.der.Waechter.201...
Australia.2008.German.DTS.DL...

 
 
The.Big.Bang.Theory.S12.GERMAN.1080p.HDTV.x264-TMSF

Jahr: 2018
Genre: Komödie
Sprache: Deutsch AC3 | Englisch AC3
Laufzeit: 21min je Folge
Bitrate: 5400 Kbps
Format: MKV
Größe: 850 MB je Folge
Release:

Beschreibung:

In der Serie geht es um die zwei scharfsinnigen, jungen Physiker Sheldon (J. Parsons) und Leonard (J. Galecki), die gemeinsam in einer WG leben. Direkt neben ihnen wohnt die blonde und ebenso sexy Kellnerin Penny (K. Cuoco). Aufgrund ihrer Haarfarbe und Naivität haben die beiden Penny schon in die Schublade der klischeehaften Blondinen gesteckt. Hinzu gesellen sich noch weitere Intelligenzbestien, wie der jüdischen Ingenieur Howard (S. Helberg) sowie der indische Astrophysiker Raj (K. Nayyar). Eins haben die vier Freunde gemein, ihre große Passion für Comics, Star Trek und andere SciFi Filme, Forschung und Computerspiele sowie ihre Zusammenarbeit im California Institute of Technology in Pasadena, Los Angeles.

 

enthaltene Folgen:

The.Big.Bang.Theory.S12E01.Der.unzufaellige.Zufallssex.GERMAN.1080p.HDTV.x264-TMSF NEU



General
Complete name                            : The.Big.Bang.Theory.S12E01.Der.unzufaellige.Zufallssex.GERMAN.1080p.HDTV.x264-TMSF\tmsf-tbbt-s12e01-1080p.mkv
Format                                   : Matroska
Format version                           : Version 4 / Version 2
File size                                : 865 MiB
Duration                                 : 20mn 12s
Overall bit rate                         : 5 987 Kbps
Encoded date                             : UTC 2019-01-07T20:23:13Z
Writing application                      : HandBrake 1.1.2 2018090500
Writing library                          : Lavf57.7.2

Video
ID                                       : 1
Format                                   : AVC
Format/Info                              : Advanced Video Codec
Format profile                           : High@L4.1
Format settings, CABAC                   : Yes
Format settings, ReFrames                : 4 frames
Codec ID                                 : V_MPEG4/ISO/AVC
Duration                                 : 20mn 12s
Bit rate                                 : 5 484 Kbps
Width                                    : 1 920 pixels
Height                                   : 1 080 pixels
Display aspect ratio                     : 16:9
Frame rate mode                          : Constant
Frame rate                               : 25.000 fps
Color space                              : YUV
Chroma subsampling                       : 4:2:0
Bit depth                                : 8 bits
Scan type                                : Progressive
Bits/(Pixel*Frame)                       : 0.106
Stream size                              : 793 MiB (92%)
Writing library                          : x264 core 155 r2901 7d0ff22
Encoding settings                        : cabac=1 / ref=4 / deblock=1:-3:-3 / analyse=0x3:0x113 / me=umh / subme=9 / psy=1 / psy_rd=1.00:0.00 / mixed_ref=1 / me_range=16 / chroma_me=1 / trellis=1 / 8x8dct=1 / cqm=0 / deadzone=21,11 / fast_pskip=0 / chroma_qp_offset=-2 / threads=12 / lookahead_threads=1 / sliced_threads=0 / nr=0 / decimate=1 / interlaced=0 / bluray_compat=0 / constrained_intra=0 / bframes=3 / b_pyramid=2 / b_adapt=2 / b_bias=0 / direct=3 / weightb=1 / open_gop=0 / weightp=2 / keyint=250 / keyint_min=25 / scenecut=40 / intra_refresh=0 / rc_lookahead=50 / rc=crf / mbtree=1 / crf=19.0 / qcomp=0.60 / qpmin=0 / qpmax=69 / qpstep=4 / vbv_maxrate=62500 / vbv_bufsize=78125 / crf_max=0.0 / nal_hrd=none / filler=0 / ip_ratio=1.40 / aq=1:1.00
Default                                  : Yes
Forced                                   : No
Color primaries                          : BT.709
Transfer characteristics                 : BT.709
Matrix coefficients                      : BT.709

Audio
ID                                       : 2
Format                                   : AC-3
Format/Info                              : Audio Coding 3
Mode extension                           : CM (complete main)
Format settings, Endianness              : Big
Codec ID                                 : A_AC3
Duration                                 : 20mn 12s
Bit rate mode                            : Constant
Bit rate                                 : 384 Kbps
Channel(s)                               : 6 channels
Channel positions                        : Front: L C R, Side: L R, LFE
Sampling rate                            : 48.0 KHz
Bit depth                                : 16 bits
Compression mode                         : Lossy
Delay relative to video                  : 64ms
Stream size                              : 55.5 MiB (6%)
Title                                    : Surround
Language                                 : German
Default                                  : Yes
Forced                                   : No



Download:
Share-Online.biz Share-Online.bizShare-Online.bizShare-Online.biz | Rapidgator.net Rapidgator.netRapidgator.netRapidgator.net
 

Kommentare